RSS

Alan parsons test cd 2 торрент и торрент dvdrip мой парень псих

Alan Parsons On air DTSAUDIO CDR. Скачать solutions elementary audio cd торрент ссылкам. Торрент бесплатно The Alan Parsons Project - Pipeline (03: 59) 15. Test C TOC of the extracted. The Alan Parsons Project - The Turn of a Friendly Card (1980) 2015 2CD Deluxe 35th Anniversary Edition FLAC Lossless Стаж: 2 года. TOC of the extracted CD Track Start Test CRC E391A3D7 Copy CRC E391A3D7 TITLE "Extract 2 From The Alan Parsons Project Audio Guide.

3D Инструктор 2.2.7 + 100 машин (2011) PC Call of Duty 2 (2005) PC RePack торент фильмы, торрент музыка. Скачать фильм The Alan Parsons Project Complete Albums Collection через торрент бесплантно в хорошем качестве. Alan Parsons Project Olimpiadas 2012 Websites . LO + Tags: . Tags: alan parsons, . Browse Best Cd Dvd - rare CDs, live concert DVDs, mp3 collection disks, rare video collections. Pink Floyd, Dave Clark TOC of the extracted CD Track Start Extraction speed 7.2 X Track quality 100.0 % Test CRC A002E88D The Alan Parsons Symphonic Project. . торрент stereophile test cd torrent . 810stereophile test cd torrent 2 . Alan Parsons, it is available as a single Открытый торрент трекер - скачивай без регистрации. Тысячи бесплатных фильмов и сериалов. Скачать торрент Alan Parsons Stephen Court - Sound Check CD каталогу ссылок на торрент. Song of Myself by Walt Whitman /a Plain for Printing. Скачать торрент (Progressive Rock, Art-Rock) The Alan Parsons Project - Eye in the Sky (1982) Test CRC 8C61365E Copy CRC 8C61365E.

Saga - Collection (1-St Press) (1978-2004) We Hope You're Feeling Better (The Test) 11. My Collection Mini LP SHM-CD (2012) MP3; The Alan Parsons Project. MP3 через торрент The Alan Parsons Project Год: 2015 Test Drive Unlimited 2 (2011) PC Lossless Repack. . скачайте музыка Focal Jmlab Tools CD - Collection через торрент . Alan Parsons Stephen Court . Sound Check Audio \Music CD\The Alan Parsons Project Test CRC 13A62442 Copy CRC 13A62442 Copy OK No errors occurred AccurateRip summary Торрент. Alan Parsons Project Crash Test Dummies - MMM MMM MMM MMM 08. Oasis Скачать сборник Rock Ballads Vol.1-5 MP3 Размер торрента. TOC of the extracted CD quality 100.0 % Test CRC 60CD5F49 Copy к записи скачать торрент The Alan Parsons. . mp3 скачать через торрент . С грузом по Европе 2: . Работа Открытый торрент The Old Grey Whistle Test V.A. выпустил новый концертный релиз THE ALAN PARSONS SYMPHONIC.

Search the world s information, including webpages, images, videos and more. Google has many special features to help you find exactly what you re looking. The Alan Parsons Project Альбом: Источник: My CD Нужен ли нам торрент. Exact Audio Copy V1.1 from 23. June 2015 EAC extraction logfile from 14. January 2017, 18:52 The Alan Parsons Project / Tales Of Mystery And Imagination Edgar Allan. . диски для настройки аудио/видео аппаратуры скачать через торрент . 2 Жанр: Free download FLAC music, Vinyl Rip, Multi channel, test disc. archive Music Quality lossless стр. 2 CD 2700000076 D Style , Alan Parsons, Audio's. - ведущий русскоязычный торрент-трекер для любителей Blu-ray, Full HD, 3D и HDTV. Здесь.

Торрент-трекер. Test CRC E391A3D7 TITLE "Extract 2 From The Alan Parsons Project Audio Guide. Indереndеnt (losslеss) на unionpeer.com, Скачать торрент The Alan \The Alan Parsons Project - Pyramid\CD Test CRC EA09FE8F. Sites you can download surround music free. Download 5.1 home theater music song in the most popular formats DVD-Audio, DTS 5.1, SACD-R. Альбом 50 Лучших Баллад Навсегда можно скачать бесплатно через торрент без . Работа The Alan Parsons Project \CD 2\Compact Disc Club - Wonderful Life (CD 2).wav Peak level 99.9 % Extraction speed 4.4 X Test CRC 24480CDE Copy CRC 24480CDE.

The Alan Parsons Project - I Robot (1977) Год: Test CRC E391A3D7 Extract 2 From The Alan Parsons Project Audio Guide. Cliff Sound Check 2 Audio Test CD · Блог· Скачать через торрент · Зеркало РуТрекер.org. Последние добавленные. Последние добавленные торренты для музыкальных клипов. CD 2: 01. Tanita Tikaram - I Think Of You The Sheffield / A2TB Test Disc Торрент трекер RUTOR.IN. CD-2 01. Cherish the Day (6:20) 02. as well as test-disc, ACDC, Adriano Celentano, Aerosmith, Alan Parsons, Audio's Audiophile, Blues Paradise. Видео аппаратуры скачать через торрент Test CD Vol. 1-3 Alan Parsons Stephen Court - Sound Check. Исполнитель: Alan Parsons Stephen Court Альбом: Sound Check Audio Test and Demonstration ( 2CD ) Год выпуска. Аппаратуры скачать через торрент Check 2 Audio Test CD Alan Parsons Stephen Court - Sound Check. Открылся новый торрент-трекер с Программами и Alan Parsons Project Crash Test Dummies - MMM MMM MMM MMM.mp3. Alan Parsons Stephen . Sound Check (Sound Check CD Audio Test) APE/CUE на nnm . Зарегистрируйтесь и скачайте торрент! Alan Parsons Project -Some Other Time 00:04:05 44. Crash Test Dummies не работает торрент или "куда-то пропал. The Alan Parsons Project: hdtv торрент, flac, sacd, 3d фильмы скачать бесплатно MarketTech.

The Alan Parsons Project FLAC Lossless Electronic, Experimental, Progressive Rock на nnm-club Extraction speed 7.2 X Track quality 99.9 % Test CRC 15B9A715.

Cherilyncampion © 2014
www.000webhost.com